Parasite (2019) 720p Torrent AMZN WEB-DL Dual Audios Hindi + English

Parasite (2019) 720p AMZN WEB-DL Dual Audios [Hin DD5.1 +Kor DD5.1] Esub 1GB  [HDWebMovies]
 

General
Format : Matroska
Format version : Version 4
File size : 984 MiB
Duration : 2 h 11 min
Overall bit rate : 1 042 kb/s
Encoded date : UTC 2020-03-26 20:49:29
Writing application : mkvmerge v44.0.0 (‘Domino’) 64-bit
Writing library : libebml v1.3.10 + libmatroska v1.5.2

Video
ID : 1
Format : AVC
Format/Info : Advanced Video Codec
Format profile : [email protected]
Format settings : CABAC / 4 Ref Frames
Format settings, CABAC : Yes
Format settings, Reference frames : 4 frames
Codec ID : V_MPEG4/ISO/AVC
Duration : 2 h 11 min
Bit rate : 728 kb/s
Width : 1 280 pixels
Height : 532 pixels
Display aspect ratio : 2.40:1
Frame rate mode : Variable
Frame rate : 23.976 FPS
Color space : YUV
Chroma subsampling : 4:2:0
Bit depth : 8 bits
Scan type : Progressive
Bits/(Pixel*Frame) : 0.045
Stream size : 690 MiB (70%)
Writing library : x264 core 152 r2854 e9a5903
Default : Yes
Forced : No

Audio #1
ID : 2
Format : AAC LC
Format/Info : Advanced Audio Codec Low Complexity
Codec ID : A_AAC-2
Duration : 2 h 11 min
Bit rate : 128 kb/s
Channel(s) : 6 channels
Channel layout : C L R Ls Rs LFE
Sampling rate : 48.0 kHz
Frame rate : 46.875 FPS (1024 SPF)
Compression mode : Lossy
Delay relative to video : 11 ms
Stream size : 121 MiB (12%)
Language : Hindi
Default : Yes
Forced : No

Audio #2
ID : 3
Format : AAC LC SBR
Format/Info : Advanced Audio Codec Low Complexity with Spectral Band Replication
Commercial name : HE-AAC
Format settings : Explicit
Codec ID : A_AAC-2
Duration : 2 h 11 min
Bit rate : 181 kb/s
Channel(s) : 6 channels
Channel layout : C L R Ls Rs LFE
Sampling rate : 48.0 kHz
Frame rate : 23.438 FPS (2048 SPF)
Compression mode : Lossy
Delay relative to video : 31 ms
Stream size : 171 MiB (17%)
Language : Korean
Default : No
Forced : No

Text
ID : 4
Format : UTF-8
Codec ID : S_TEXT/UTF8
Codec ID/Info : UTF-8 Plain Text
Duration : 2 h 5 min
Bit rate : 54 b/s
Count of elements : 1659
Stream size : 49.9 KiB (0%)
Language : English
Default : No
Forced : No

Leave a Reply